Loading...


Loading




Author : Root | Date : 9 February 2014 | Comments : 0 |
|

Pluralsight - Introduction to JavaScript & jQuery (2014)
MP4 | AVC 648kbps | English | 1024x768 | 23.97fps | 3h 34mins | AAC stereo 121kbps | 1.23 GB
Genre: Video Training

Karl Swedberg, author of Learning jQuery and the jQuery API Documentation (api.jquery.com), teaches you what you need to know about the JavaScript language before diving into jQuery; including closures, anonymous functions, and implicit versus explicit iteration. If you missed out on a formal education on pure JavaScript, this workshop will help get you up to speed on the language.

Karl Swedberg, author of Learning jQuery and the jQuery API Documentation (api.jquery.com), teaches you what you need to know about the JavaScript language before diving into jQuery; including closures, anonymous functions, and implicit versus explicit iteration. If you missed out on a formal education on pure JavaScript, this workshop will help get you up to speed on the language.
introduction-javascript-jquery.zip
│
├───01. jQuery & History of DOM Scripting
│ 01. History of jQuery.mp4
│ 02. Benefits of jQuery.mp4
│ 03. Core Concepts of jQuery.mp4
│
├───02. Developer Tools
│ 01. Browser Support.mp4
│ 02. Code Sharing.mp4
│ 03. Developer Tools.mp4
│
├───03. Bare-bones JavaScript
│ 01. Data Types and Variables.mp4
│ 02. JavaScript Operators.mp4
│ 03. Loops.mp4
│ 04. Functions and Arguments.mp4
│ 05. Coding Exercise.mp4
│ 06. Named and Anonymous Functions.mp4
│ 07. Objects.mp4
│ 08. Additional Object Examples.mp4
│ 09. jQuery and JavaScript Loading.mp4
│ 10. JavaScript Loading and Execution Tips.mp4
│
├───04. jQuery Selectors and Traversal
│ 01. Find Something.mp4
│ 02. Traversal Methods Up, Sideways, and Down.mp4
│ 03. Traversal Methods Filtering.mp4
│ 04. Demonstration of Traversal Methods.mp4
│ 05. Chaining.mp4
│ 06. Looping.mp4
│ 07. jQuery Selecting Tips.mp4
│
└───05. Q&A
01. Open Questions with Karl.mp4
Mediainfo:

Format : MPEG-4
Format profile : Base Media / Version 2
Codec ID : mp42
File size : 41.2 MiB
Duration : 7mn 27s
Overall bit rate : 772 Kbps
Encoded date : UTC 2014-01-20 06:42:53
Tagged date : UTC 2014-01-20 06:43:56
Writing application : HandBrake 0.9.8 2012071700
Video #1
ID : 1
Format : AVC
Format/Info : Advanced Video Codec
Format profile : [email protected]
Format settings, CABAC : No
Format settings, ReFrames : 2 frames
Codec ID : avc1
Codec ID/Info : Advanced Video Coding
Duration : 7mn 27s
Bit rate mode : Variable
Bit rate : 648 Kbps
Width : 1 024 pixels
Height : 768 pixels
Display aspect ratio : 4:3
Frame rate mode : Variable
Frame rate : 23.976 fps
Minimum frame rate : 11.989 fps
Maximum frame rate : 23.981 fps
Resolution : 24 bits
Colorimetry : 4:2:0
Scan type : Progressive
Bits/(Pixel*Frame) : 0.034
Stream size : 34.6 MiB (84%)
Writing library : x264 core 120
Encoding settings : cabac=0 / ref=2 / deblock=1:0:0 / analyse=0x1:0x111 / me=umh / subme=6 / psy=1 / psy_rd=1.00:0.00 / mixed_ref=1 / me_range=16 / chroma_me=1 / trellis=0 / 8x8dct=0 / cqm=0 / deadzone=21,11 / fast_pskip=1 / chroma_qp_offset=-2 / threads=12 / sliced_threads=0 / nr=0 / decimate=1 / interlaced=0 / bluray_compat=0 / constrained_intra=0 / bframes=0 / weightp=0 / keyint=50 / keyint_min=24 / scenecut=40 / intra_refresh=0 / rc_lookahead=40 / rc=crf / mbtree=1 / crf=20.0 / qcomp=0.60 / qpmin=3 / qpmax=69 / qpstep=4 / ip_ratio=1.40 / aq=1:1.00
Encoded date : UTC 2014-01-20 06:42:53
Tagged date : UTC 2014-01-20 06:43:56
colour_primaries : BT.709-5, BT.1361, IEC 61966-2-4, SMPTE RP177
transfer_characteristics : BT.709-5, BT.1361
matrix_coefficients : BT.709-5, BT.1361, IEC 61966-2-4 709, SMPTE RP177
Audio #2
ID : 2
Format : AAC
Format/Info : Advanced Audio Codec
Format version : Version 4
Format profile : LC
Format settings, SBR : No
Codec ID : 40
Duration : 7mn 27s
Bit rate mode : Variable
Bit rate : 121 Kbps
Maximum bit rate : 152 Kbps
Channel(s) : 2 channels
Channel positions : L R
Sampling rate : 44.1 KHz
Resolution : 16 bits
Stream size : 6.44 MiB (16%)
Language : English
Encoded date : UTC 2014-01-20 06:42:53
Tagged date : UTC 2014-01-20 06:43:55

Download Now :

 

ADVERTISING » Full And Free Download
Direct Download Free Pluralsight - Introduction to JavaScript & jQuery .zip
« ADVERTISING

Pluralsight - Introduction to JavaScript & jQuery Copyright

eBookw periodically updates infomation,google book,amazone aff, image review of Pluralsight - Introduction to JavaScript & jQuery .You should confirm all information before relying on it. eBook piracy is theft, Pluralsight - Introduction to JavaScript & jQuery download torrent,direct link,prefiles.com,Pluralsight - Introduction to JavaScript & jQuery dropbox.com,Pluralsight - Introduction to JavaScript & jQuery mediafire.com,Pluralsight - Introduction to JavaScript & jQuery rapidgator.net,Pluralsight - Introduction to JavaScript & jQuery filefactory.com,Pluralsight - Introduction to JavaScript & jQuery uploaded.net at here Please contact hostfile


Write a Comment For"Pluralsight - Introduction to JavaScript & jQuery "




Remember Me?
BOOKSMARK US

rss feed

Get newest Ebooks and Video via RSS reader

feed burner

Mail Daily Letter

Enter your email address:

PUBLICATION ARCHIVE

Main/Menu

 

WE RECOMMEND TO VISIT:

^ Top