Loading...


Loading




Author : Root | Date : 18 July 2014 | Comments : 0 |
|

codeschool - Javascript Road Trip Part 1
English | MP4 | 1280x720 | AVC 985 Kbps 29.970 fps | AAC 128 Kbps 48.0 khz | 45mn | 414 MB
Genre: Video Training

An introduction to the very basics of the JavaScript language. Build a foundation of JavaScript syntax and learn how to use values, variables, and files.


An introduction to the very basics of the JavaScript language. Build a foundation of JavaScript syntax and learn how to use values, variables, and files.
Content:
1.1.Booleans, The True Path.mp4
1.7.Strings on Signs.mp4
2.1 Variable Discovery.mp4
2.4 Variable Exploration.mp4
3.1 Script Tags.mp4
3.4 Down to the Files.mp4

MediaInfo:
General
Complete name : 1.1.Booleans, The True Path.mp4
Format : MPEG-4
Format profile : Base Media
Codec ID : isom
File size : 52.6 MiB
Duration : 6mn 15s
Overall bit rate mode : Variable
Overall bit rate : 1 176 Kbps
Encoded date : UTC 2013-09-10 08:05:32
Tagged date : UTC 2013-09-10 08:05:32
Writing application : Lavf54.6.100
Video
ID : 1
Format : AVC
Format/Info : Advanced Video Codec
Format profile : [email protected]
Format settings, CABAC : Yes
Format settings, ReFrames : 4 frames
Codec ID : avc1
Codec ID/Info : Advanced Video Coding
Duration : 6mn 15s
Bit rate : 985 Kbps
Nominal bit rate : 1 500 Kbps
Width : 1 280 pixels
Height : 720 pixels
Display aspect ratio : 16:9
Frame rate mode : Variable
Frame rate : 29.970 fps
Minimum frame rate : 15.000 fps
Maximum frame rate : 30.000 fps
Color space : YUV
Chroma subsampling : 4:2:0
Bit depth : 8 bits
Scan type : Progressive
Bits/(Pixel*Frame) : 0.036
Stream size : 44.1 MiB (84%)
Writing library : x264 core 118
Encoding settings : cabac=1 / ref=2 / deblock=1:0:0 / analyse=0x1:0x111 / me=umh / subme=8 / psy=1 / psy_rd=1.00:0.00 / mixed_ref=1 / me_range=16 / chroma_me=1 / trellis=1 / 8x8dct=0 / cqm=0 / deadzone=21,11 / fast_pskip=1 / chroma_qp_offset=-2 / threads=12 / sliced_threads=0 / nr=0 / decimate=1 / interlaced=0 / bluray_compat=0 / constrained_intra=0 / bframes=3 / b_pyramid=2 / b_adapt=2 / b_bias=0 / direct=1 / weightb=1 / open_gop=0 / weightp=2 / keyint=30 / keyint_min=16 / scenecut=40 / intra_refresh=0 / rc_lookahead=30 / rc=abr / mbtree=1 / bitrate=1500 / ratetol=1.0 / qcomp=0.60 / qpmin=10 / qpmax=51 / qpstep=4 / ip_ratio=1.40 / aq=1:1.00
Language : English
Encoded date : UTC 2013-09-10 08:05:32
Tagged date : UTC 2013-09-10 09:52:24
Audio
ID : 2
Format : AAC
Format/Info : Advanced Audio Codec
Format profile : LC
Codec ID : 40
Duration : 6mn 15s
Bit rate mode : Variable
Bit rate : 126 Kbps
Maximum bit rate : 128 Kbps
Channel(s) : 2 channels
Channel positions : Front: L R
Sampling rate : 48.0 KHz
Compression mode : Lossy
Stream size : 5.64 MiB (11%)
Language : English
Encoded date : UTC 2013-09-10 08:05:32
Tagged date : UTC 2013-09-10 09:52:24

Download Now :

 

ADVERTISING » Full And Free Download
Direct Download Free codeschool - Javascript Road Trip Part 1.zip
« ADVERTISING

codeschool - Javascript Road Trip Part 1 Copyright

eBookw periodically updates infomation,google book,amazone aff, image review of codeschool - Javascript Road Trip Part 1.You should confirm all information before relying on it. eBook piracy is theft, codeschool - Javascript Road Trip Part 1 download torrent,direct link,prefiles.com,codeschool - Javascript Road Trip Part 1 dropbox.com,codeschool - Javascript Road Trip Part 1 mediafire.com,codeschool - Javascript Road Trip Part 1 rapidgator.net,codeschool - Javascript Road Trip Part 1 filefactory.com,codeschool - Javascript Road Trip Part 1 uploaded.net at here Please contact hostfile


Write a Comment For"codeschool - Javascript Road Trip Part 1"




Remember Me?
BOOKSMARK US

rss feed

Get newest Ebooks and Video via RSS reader

feed burner

Mail Daily Letter

Enter your email address:

PUBLICATION ARCHIVE

Main/Menu

 

WE RECOMMEND TO VISIT:

^ Top