Loading...


Loading




Author : Root | Date : 22 December 2014 | Comments : 0 |
|

udemy - Multilingual CMS Website with PHP, MySQL, jQuery
English | MP4 | 960x600 | AVC 3900 Kbps 25.000 fps | AAC 48.0 Kbps 44.1 khz | 9 hours | 986 MB
Sample Files: present
Genre: Video Training

In this course we will learn how to develop a Multilingual Content Management System with Object Oriented PHP, MySQL and jQuery. The completed system will allow you to manage content of the pages, navigation, list of languages, labels, label types and users - all in different languages.


In this course we will learn how to develop a Multilingual Content Management System with Object Oriented PHP, MySQL and jQuery. The completed system will allow you to manage content of the pages, navigation, list of languages, labels, label types and users - all in different languages. Both - front end and control panel will have an option to change the language of the interface to allow visitor as well as administrator to choose the language they are most familiar with.
Some of the objects (classes) we will create include:
Url - for processing static urls
Database - PHP PDO class wrapper to simplify all database interactions
Paging - to apply pagination to long lists of results
Language - for populating as well as managing all labels and content associated with the selected language
Validation - to validate all form inputs
and many more...

MediaInfo:
General
Complete name : mcw - 01.mp4
Format : MPEG-4
Format profile : Base Media
Codec ID : isom
File size : 12.4 MiB
Duration : 4mn 43s
Overall bit rate mode : Variable
Overall bit rate : 368 Kbps
Encoded date : UTC 2012-04-17 06:51:15
Tagged date : UTC 2012-04-17 06:51:15
Video
ID : 1
Format : AVC
Format/Info : Advanced Video Codec
Format profile : [email protected]
Format settings, CABAC : No
Format settings, ReFrames : 3 frames
Format settings, GOP : M=1, N=75
Codec ID : avc1
Codec ID/Info : Advanced Video Coding
Duration : 4mn 43s
Bit rate : 319 Kbps
Maximum bit rate : 3 900 Kbps
Width : 960 pixels
Height : 600 pixels
Display aspect ratio : 16:10
Frame rate mode : Constant
Frame rate : 25.000 fps
Color space : YUV
Chroma subsampling : 4:2:0
Bit depth : 8 bits
Scan type : Progressive
Bits/(Pixel*Frame) : 0.022
Stream size : 10.8 MiB (87%)
Writing library : x264 core 120 r2324M 2ce5bdd
Encoding settings : cabac=0 / ref=3 / deblock=1:0:0 / analyse=0x1:0x111 / me=hex / subme=4 / psy=1 / psy_rd=1.00:0.00 / mixed_ref=0 / me_range=16 / chroma_me=1 / trellis=1 / 8x8dct=0 / cqm=0 / deadzone=21,11 / fast_pskip=1 / chroma_qp_offset=0 / threads=48 / sliced_threads=0 / nr=0 / decimate=1 / interlaced=0 / bluray_compat=0 / constrained_intra=0 / bframes=0 / weightp=0 / keyint=75 / keyint_min=7 / scenecut=40 / intra_refresh=0 / rc_lookahead=20 / rc=crf / mbtree=1 / crf=22.0 / qcomp=0.60 / qpmin=0 / qpmax=69 / qpstep=4 / ip_ratio=1.40 / aq=1:1.00
Encoded date : UTC 2012-04-17 06:50:47
Tagged date : UTC 2012-04-17 06:51:15
Audio
ID : 2
Format : AAC
Format/Info : Advanced Audio Codec
Format profile : LC
Codec ID : 40
Duration : 4mn 43s
Bit rate mode : Variable
Bit rate : 48.0 Kbps
Maximum bit rate : 50.5 Kbps
Channel(s) : 1 channel
Channel positions : Front: C
Sampling rate : 44.1 KHz
Compression mode : Lossy
Stream size : 1.57 MiB (13%)
Encoded date : UTC 2012-04-17 06:51:15
Tagged date : UTC 2012-04-17 06:51:15

Download Now :

 

ADVERTISING » Full And Free Download
Direct Download Free udemy - Multilingual CMS Website with PHP, MySQL, jQuery.zip
« ADVERTISING

udemy - Multilingual CMS Website with PHP, MySQL, jQuery Copyright

eBookw periodically updates infomation,google book,amazone aff, image review of udemy - Multilingual CMS Website with PHP, MySQL, jQuery.You should confirm all information before relying on it. eBook piracy is theft, udemy - Multilingual CMS Website with PHP, MySQL, jQuery download torrent,direct link,prefiles.com,udemy - Multilingual CMS Website with PHP, MySQL, jQuery dropbox.com,udemy - Multilingual CMS Website with PHP, MySQL, jQuery mediafire.com,udemy - Multilingual CMS Website with PHP, MySQL, jQuery rapidgator.net,udemy - Multilingual CMS Website with PHP, MySQL, jQuery filefactory.com,udemy - Multilingual CMS Website with PHP, MySQL, jQuery uploaded.net at here Please contact hostfile


Write a Comment For"udemy - Multilingual CMS Website with PHP, MySQL, jQuery"




Remember Me?
BOOKSMARK US

rss feed

Get newest Ebooks and Video via RSS reader

feed burner

Mail Daily Letter

Enter your email address:

PUBLICATION ARCHIVE

Main/Menu

 

WE RECOMMEND TO VISIT:

^ Top