Loading...


Loading




Author : Root | Date : 28 May 2015 | Comments : 0 |
|

Pluralsight: Build Your First Website
English | MP4 + Project Files | 1024 x 768 | AVC ~948 kbps | 30 fps
AAC | 113 Kbps | 44.1 KHz | 2 channels | 2h 26min | 1.12 GB
Genre: Video Tutorial

A no-nonsense fast track to teach you how to develop a web site from scratch.


A no-nonsense fast track to teach you how to develop a web site from scratch.

by Doug Turnure
Duration: 2h 26m

Contents:
How the Web Works 27:20
WebMatrix 10:13
Building the Site 1:23:20
Adding Script 25:46
More info: homepage
MediaInfo:
General
Complete name : 02. Getting the project started.mp4
Format : MPEG-4
Format profile : Base Media / Version 2
Codec ID : mp42
File size : 71.5 MiB
Duration : 9mn 22s
Overall bit rate mode : Variable
Overall bit rate : 1 066 Kbps
Encoded date : UTC 2012-12-18 07:16:14
Tagged date : UTC 2012-12-18 07:17:46
Writing application : HandBrake 0.9.8 2012071700
Video
ID : 1
Format : AVC
Format/Info : Advanced Video Codec
Format profile : [email protected]
Format settings, CABAC : No
Format settings, ReFrames : 2 frames
Codec ID : avc1
Codec ID/Info : Advanced Video Coding
Duration : 9mn 22s
Bit rate mode : Variable
Bit rate : 948 Kbps
Width : 1 024 pixels
Height : 768 pixels
Display aspect ratio : 4:3
Frame rate mode : Variable
Frame rate : 30.000 fps
Minimum frame rate : 29.412 fps
Maximum frame rate : 30.303 fps
Color space : YUV
Chroma subsampling : 4:2:0
Bit depth : 8 bits
Scan type : Progressive
Bits/(Pixel*Frame) : 0.040
Stream size : 63.6 MiB (89%)
Writing library : x264 core 120
Encoding settings : cabac=0 / ref=2 / deblock=1:0:0 / analyse=0x1:0x111 / me=umh / subme=6 / psy=1 / psy_rd=1.00:0.00 / mixed_ref=1 / me_range=16 / chroma_me=1 / trellis=0 / 8x8dct=0 / cqm=0 / deadzone=21,11 / fast_pskip=1 / chroma_qp_offset=-2 / threads=12 / sliced_threads=0 / nr=0 / decimate=1 / interlaced=0 / bluray_compat=0 / constrained_intra=0 / bframes=0 / weightp=0 / keyint=50 / keyint_min=26 / scenecut=40 / intra_refresh=0 / rc_lookahead=40 / rc=crf / mbtree=1 / crf=20.0 / qcomp=0.60 / qpmin=3 / qpmax=69 / qpstep=4 / ip_ratio=1.40 / aq=1:1.00
Encoded date : UTC 2012-12-18 07:16:14
Tagged date : UTC 2012-12-18 07:17:46
Color primaries : BT.709-5, BT.1361, IEC 61966-2-4, SMPTE RP177
Transfer characteristics : BT.709-5, BT.1361
Matrix coefficients : BT.709-5, BT.1361, IEC 61966-2-4 709, SMPTE RP177
Audio
ID : 2
Format : AAC
Format/Info : Advanced Audio Codec
Format profile : LC
Codec ID : 40
Duration : 9mn 22s
Bit rate mode : Variable
Bit rate : 113 Kbps
Maximum bit rate : 173 Kbps
Channel(s) : 2 channels
Channel positions : Front: L R
Sampling rate : 44.1 KHz
Compression mode : Lossy
Stream size : 7.59 MiB (11%)
Language : English
Encoded date : UTC 2012-12-18 07:16:14
Tagged date : UTC 2012-12-18 07:17:46

Download Now :

 

ADVERTISING » Full And Free Download
Direct Download Free Pluralsight: Build Your First Website.zip
« ADVERTISING

Pluralsight: Build Your First Website Copyright

eBookw periodically updates infomation,google book,amazone aff, image review of Pluralsight: Build Your First Website.You should confirm all information before relying on it. eBook piracy is theft, Pluralsight: Build Your First Website download torrent,direct link,prefiles.com,Pluralsight: Build Your First Website dropbox.com,Pluralsight: Build Your First Website mediafire.com,Pluralsight: Build Your First Website rapidgator.net,Pluralsight: Build Your First Website filefactory.com,Pluralsight: Build Your First Website uploaded.net at here Please contact hostfile


Write a Comment For"Pluralsight: Build Your First Website"




Remember Me?
BOOKSMARK US

rss feed

Get newest Ebooks and Video via RSS reader

feed burner

Mail Daily Letter

Enter your email address:

PUBLICATION ARCHIVE

Main/Menu

 

WE RECOMMEND TO VISIT:

^ Top