Loading...


Loading




Author : Root | Date : 9 January 2017 | Comments : 0 |
|
jQuery In-Depth By Karl Swedberg [repost]

jQuery In-Depth By Karl Swedberg
WEBRip | English | MP4 + Project files | 1024 x 768 | AVC ~775 kbps | 24 fps
AAC | 126 Kbps | 44.1 KHz | 2 channels | 3h 35mn | 1.38 GB
Genre: Video Tutorial

Karl leverages his experience on the jQuery Team and gives a thorough walkthrough of all of the most important parts of jQuery. He discusses how to resolve some common misuses of each of these areas and also covers recent changes to jQuery like the new Ajax promise API and cleaning up your event handling and delegation by using the new "on" method.
Content:

Events in jQuery
DOM Manipulation
Ajax
Effects and Animations

also You can watch my other last: Programming-posts

General
Complete name : 03. Multiple Handlers and Promises.mp4
Format : MPEG-4
Format profile : Base Media / Version 2
Codec ID : mp42
File size : 57.2 MiB
Duration : 8mn 50s
Overall bit rate mode : Variable
Overall bit rate : 904 Kbps
Encoded date : UTC 2014-01-19 22:36:39
Tagged date : UTC 2014-01-19 22:37:54
Writing application : HandBrake 0.9.8 2012071700

Video
ID : 1
Format : AVC
Format/Info : Advanced Video Codec
Format profile : [email protected]
Format settings, CABAC : No
Format settings, ReFrames : 2 frames
Codec ID : avc1
Codec ID/Info : Advanced Video Coding
Duration : 8mn 50s
Duration_FirstFrame : 42ms
Bit rate : 775 Kbps
Width : 1 024 pixels
Height : 768 pixels
Display aspect ratio : 4:3
Frame rate mode : Constant
Frame rate : 24.000 fps
Color space : YUV
Chroma subsampling : 4:2:0
Bit depth : 8 bits
Scan type : Progressive
Bits/(Pixel*Frame) : 0.041
Stream size : 49.1 MiB (86%)
Writing library : x264 core 120
Encoding settings : cabac=0 / ref=2 / deblock=1:0:0 / analyse=0x1:0x111 / me=umh / subme=6 / psy=1 / psy_rd=1.00:0.00 / mixed_ref=1 / me_range=16 / chroma_me=1 / trellis=0 / 8x8dct=0 / cqm=0 / deadzone=21,11 / fast_pskip=1 / chroma_qp_offset=-2 / threads=12 / sliced_threads=0 / nr=0 / decimate=1 / interlaced=0 / bluray_compat=0 / constrained_intra=0 / bframes=0 / weightp=0 / keyint=50 / keyint_min=24 / scenecut=40 / intra_refresh=0 / rc_lookahead=40 / rc=crf / mbtree=1 / crf=20.0 / qcomp=0.60 / qpmin=3 / qpmax=69 / qpstep=4 / ip_ratio=1.40 / aq=1:1.00
Encoded date : UTC 2014-01-19 22:36:39
Tagged date : UTC 2014-01-19 22:37:54
Color range : Limited
Color primaries : BT.709
Transfer characteristics : BT.709
Matrix coefficients : BT.709

Audio
ID : 2
Format : AAC
Format/Info : Advanced Audio Codec
Format profile : LC
Codec ID : 40
Duration : 8mn 50s
Bit rate mode : Variable
Bit rate : 126 Kbps
Maximum bit rate : 150 Kbps
Channel(s) : 2 channels
Channel positions : Front: L R
Sampling rate : 44.1 KHz
Compression mode : Lossy
Stream size : 7.96 MiB (14%)
Title : Stereo
Language : English
Encoded date : UTC 2014-01-19 22:36:39
Tagged date : UTC 2014-01-19 22:37:53
Screenshots

jQuery In-Depth By Karl Swedberg [repost]

jQuery In-Depth By Karl Swedberg [repost]

jQuery In-Depth By Karl Swedberg [repost]

jQuery In-Depth By Karl Swedberg [repost]

Exclusive eLearning Videos ParRus-blog ? add to bookmarks

jQuery In-Depth By Karl Swedberg [repost]

Download Now :

 

ADVERTISING » Full And Free Download
Direct Download Free jQuery In-Depth By Karl Swedberg .zip
« ADVERTISING

jQuery In-Depth By Karl Swedberg Copyright

eBookw periodically updates infomation,google book,amazone aff, image review of jQuery In-Depth By Karl Swedberg .You should confirm all information before relying on it. eBook piracy is theft, jQuery In-Depth By Karl Swedberg download torrent,direct link,prefiles.com,jQuery In-Depth By Karl Swedberg dropbox.com,jQuery In-Depth By Karl Swedberg mediafire.com,jQuery In-Depth By Karl Swedberg rapidgator.net,jQuery In-Depth By Karl Swedberg filefactory.com,jQuery In-Depth By Karl Swedberg uploaded.net at here Please contact hostfile


Write a Comment For"jQuery In-Depth By Karl Swedberg "




Remember Me?
BOOKSMARK US

rss feed

Get newest Ebooks and Video via RSS reader

feed burner

Mail Daily Letter

Enter your email address:

PUBLICATION ARCHIVE

Main/Menu

 

WE RECOMMEND TO VISIT:

^ Top