Loading...


Loading




Author : Root | Date : 10 January 2017 | Comments : 0 |
|
UI Architecture By Garann Means [repost]

UI Architecture By Garann Means
WEBRip | English | MP4 + Project files | 1024 x 768 | AVC ~553 kbps | 24 fps
AAC | 128 Kbps | 44.1 KHz | 2 channels | 3h 54mn | 1.16 GB
Genre: Video Tutorial

Garann walks through considerations you need to make when building an architecture for your web application. She covers JavaScript architecture and lots of tools you can use to improve your client-side stack.
Content:

JavaScript Architecture
Abstractions and Frameworks
Outside Tools
Outside Tools, continued

also You can watch my other last: Programming-posts

General
Complete name : 03. Implementing a Framework.mp4
Format : MPEG-4
Format profile : Base Media / Version 2
Codec ID : mp42
File size : 27.4 MiB
Duration : 5mn 36s
Overall bit rate mode : Variable
Overall bit rate : 684 Kbps
Encoded date : UTC 2014-01-19 23:26:36
Tagged date : UTC 2014-01-19 23:27:20
Writing application : HandBrake 0.9.8 2012071700

Video
ID : 1
Format : AVC
Format/Info : Advanced Video Codec
Format profile : [email protected]
Format settings, CABAC : No
Format settings, ReFrames : 2 frames
Codec ID : avc1
Codec ID/Info : Advanced Video Coding
Duration : 5mn 36s
Duration_FirstFrame : 42ms
Bit rate : 553 Kbps
Width : 1 024 pixels
Height : 768 pixels
Display aspect ratio : 4:3
Frame rate mode : Constant
Frame rate : 24.000 fps
Color space : YUV
Chroma subsampling : 4:2:0
Bit depth : 8 bits
Scan type : Progressive
Bits/(Pixel*Frame) : 0.029
Stream size : 22.2 MiB (81%)
Writing library : x264 core 120
Encoding settings : cabac=0 / ref=2 / deblock=1:0:0 / analyse=0x1:0x111 / me=umh / subme=6 / psy=1 / psy_rd=1.00:0.00 / mixed_ref=1 / me_range=16 / chroma_me=1 / trellis=0 / 8x8dct=0 / cqm=0 / deadzone=21,11 / fast_pskip=1 / chroma_qp_offset=-2 / threads=12 / sliced_threads=0 / nr=0 / decimate=1 / interlaced=0 / bluray_compat=0 / constrained_intra=0 / bframes=0 / weightp=0 / keyint=50 / keyint_min=24 / scenecut=40 / intra_refresh=0 / rc_lookahead=40 / rc=crf / mbtree=1 / crf=20.0 / qcomp=0.60 / qpmin=3 / qpmax=69 / qpstep=4 / ip_ratio=1.40 / aq=1:1.00
Encoded date : UTC 2014-01-19 23:26:36
Tagged date : UTC 2014-01-19 23:27:20
Color range : Limited
Color primaries : BT.709
Transfer characteristics : BT.709
Matrix coefficients : BT.709

Audio
ID : 2
Format : AAC
Format/Info : Advanced Audio Codec
Format profile : LC
Codec ID : 40
Duration : 5mn 36s
Bit rate mode : Variable
Bit rate : 128 Kbps
Maximum bit rate : 148 Kbps
Channel(s) : 2 channels
Channel positions : Front: L R
Sampling rate : 44.1 KHz
Compression mode : Lossy
Stream size : 5.13 MiB (19%)
Title : Stereo
Language : English
Encoded date : UTC 2014-01-19 23:26:36
Tagged date : UTC 2014-01-19 23:27:20
Screenshots

UI Architecture By Garann Means [repost]

UI Architecture By Garann Means [repost]

UI Architecture By Garann Means [repost]

UI Architecture By Garann Means [repost]

Exclusive eLearning Videos ParRus-blog ? add to bookmarks

UI Architecture By Garann Means [repost]

Download Now :

 

ADVERTISING » Full And Free Download
Direct Download Free UI Architecture By Garann Means .zip
« ADVERTISING

UI Architecture By Garann Means Copyright

eBookw periodically updates infomation,google book,amazone aff, image review of UI Architecture By Garann Means .You should confirm all information before relying on it. eBook piracy is theft, UI Architecture By Garann Means download torrent,direct link,prefiles.com,UI Architecture By Garann Means dropbox.com,UI Architecture By Garann Means mediafire.com,UI Architecture By Garann Means rapidgator.net,UI Architecture By Garann Means filefactory.com,UI Architecture By Garann Means uploaded.net at here Please contact hostfile


Write a Comment For"UI Architecture By Garann Means "




Remember Me?
BOOKSMARK US

rss feed

Get newest Ebooks and Video via RSS reader

feed burner

Mail Daily Letter

Enter your email address:

PUBLICATION ARCHIVE

Main/Menu

 

WE RECOMMEND TO VISIT:

^ Top