Loading...


Loading




Author : Root | Date : 10 January 2017 | Comments : 0 |
|
Build E-commerce website with PHP, MySQL, jQuery and PayPal [repost]

Build E-commerce website with PHP, MySQL, jQuery and PayPal
WEBRip | English | MP4 + Project files | 960 x 600 | AVC ~422 kbps | 30 fps
AAC | 42.9 Kbps | 44.1 KHz | 1 channel | ~14.5 hours | 1.86 GB
Genre: Video Tutorial

This, over 14.5 hours long series takes you through the journey of developing your very own E-commerce web application with Object Oriented PHP, MySQL, jQuery and PayPal. During this series we will learn how to use Object Oriented PHP and how to create Classes and Methods, which will allow us to process the functionality of the entire project. The outcome of this easy to follow series is the fully functional E-commerce website ready to sell products and accept payments with PayPal.
Topics include:

Catalogue of products displayed under different categories
Shopping basket including the small, preview basket
Login and Registration forms
Checkout with shipping address form
Payment integration with PayPal including IPN (Instant Payment Notifications)
Orders section for clients with status updates and invoices
Administrative control panel to allow you manage all of the above

also You can watch my other last: Programming-posts

General
Complete name : Hash function.mp4
Format : MPEG-4
Format profile : Base Media
Codec ID : isom
File size : 9.83 MiB
Duration : 2mn 56s
Overall bit rate mode : Variable
Overall bit rate : 467 Kbps
Encoded date : UTC 2012-04-07 11:18:29
Tagged date : UTC 2012-04-07 11:18:29

Video
ID : 1
Format : AVC
Format/Info : Advanced Video Codec
Format profile : [email protected]
Format settings, CABAC : No
Format settings, ReFrames : 3 frames
Format settings, GOP : M=1, N=75
Codec ID : avc1
Codec ID/Info : Advanced Video Coding
Duration : 2mn 56s
Bit rate : 422 Kbps
Maximum bit rate : 6 771 Kbps
Width : 960 pixels
Height : 600 pixels
Display aspect ratio : 16:10
Frame rate mode : Constant
Frame rate : 30.000 fps
Color space : YUV
Chroma subsampling : 4:2:0
Bit depth : 8 bits
Scan type : Progressive
Bits/(Pixel*Frame) : 0.024
Stream size : 8.89 MiB (90%)
Writing library : x264 core 115 r2013 6fce39a
Encoding settings : cabac=0 / ref=3 / deblock=1:0:0 / analyse=0x1:0x111 / me=hex / subme=4 / psy=1 / psy_rd=1.00:0.00 / mixed_ref=0 / me_range=16 / chroma_me=1 / trellis=1 / 8x8dct=0 / cqm=0 / deadzone=21,11 / fast_pskip=1 / chroma_qp_offset=0 / threads=48 / sliced_threads=0 / nr=0 / decimate=1 / interlaced=0 / bluray_compat=0 / constrained_intra=0 / bframes=0 / weightp=0 / keyint=75 / keyint_min=7 / scenecut=40 / intra_refresh=0 / rc_lookahead=20 / rc=crf / mbtree=1 / crf=22.0 / qcomp=0.60 / qpmin=0 / qpmax=69 / qpstep=4 / ip_ratio=1.40 / aq=1:1.00
Encoded date : UTC 2012-04-07 11:18:15
Tagged date : UTC 2012-04-07 11:18:29

Audio
ID : 2
Format : AAC
Format/Info : Advanced Audio Codec
Format profile : LC
Codec ID : 40
Duration : 2mn 53s
Bit rate mode : Variable
Bit rate : 42.9 Kbps
Maximum bit rate : 47.5 Kbps
Channel(s) : 1 channel
Channel positions : Front: C
Sampling rate : 44.1 KHz
Compression mode : Lossy
Stream size : 906 KiB (9%)
Encoded date : UTC 2012-04-07 11:18:29
Tagged date : UTC 2012-04-07 11:18:29
Screenshots

Build E-commerce website with PHP, MySQL, jQuery and PayPal [repost]

Build E-commerce website with PHP, MySQL, jQuery and PayPal [repost]

Build E-commerce website with PHP, MySQL, jQuery and PayPal [repost]

Build E-commerce website with PHP, MySQL, jQuery and PayPal [repost]

Build E-commerce website with PHP, MySQL, jQuery and PayPal [repost]

Exclusive eLearning Videos ParRus-blog ? add to bookmarks

Build E-commerce website with PHP, MySQL, jQuery and PayPal [repost]

Download Now :

 

ADVERTISING » Full And Free Download
Direct Download Free Build E-commerce website with PHP, MySQL, jQuery and PayPal .zip
« ADVERTISING

Build E-commerce website with PHP, MySQL, jQuery and PayPal Copyright

eBookw periodically updates infomation,google book,amazone aff, image review of Build E-commerce website with PHP, MySQL, jQuery and PayPal .You should confirm all information before relying on it. eBook piracy is theft, Build E-commerce website with PHP, MySQL, jQuery and PayPal download torrent,direct link,prefiles.com,Build E-commerce website with PHP, MySQL, jQuery and PayPal dropbox.com,Build E-commerce website with PHP, MySQL, jQuery and PayPal mediafire.com,Build E-commerce website with PHP, MySQL, jQuery and PayPal rapidgator.net,Build E-commerce website with PHP, MySQL, jQuery and PayPal filefactory.com,Build E-commerce website with PHP, MySQL, jQuery and PayPal uploaded.net at here Please contact hostfile


Write a Comment For"Build E-commerce website with PHP, MySQL, jQuery and PayPal "




Remember Me?
BOOKSMARK US

rss feed

Get newest Ebooks and Video via RSS reader

feed burner

Mail Daily Letter

Enter your email address:

PUBLICATION ARCHIVE

Main/Menu

 

WE RECOMMEND TO VISIT:

^ Top