Loading...


Loading




Author : Root | Date : 22 December 2014 | Comments : 0 |
|

udemy - Multi page online form with PHP, MySQL and Session Variables
English | MP4 | 800x600 | AVC 1159 Kbps 25.000 fps | AAC 45.8 Kbps 44.1 khz | 3h 40mn | 295 MB
Genre: Video Training

In this series we will have a look at how we can crate a mulit page online form to store data from several different sections of the survey form, store and display them on the summary page. The form will retain the entered / selected values when we move back and forth and will not allow to move forward unless the required options have been selected / filled in. All this will be done using PHP, MySQL and Session Variables.


In this series we will have a look at how we can crate a mulit page online form to store data from several different sections of the survey form, store and display them on the summary page. The form will retain the entered / selected values when we move back and forth and will not allow to move forward unless the required options have been selected / filled in. All this will be done using PHP, MySQL and Session Variables.

MediaInfo:
General
Complete name : mpof - 01.mp4
Format : MPEG-4
Format profile : Base Media
Codec ID : isom
File size : 4.33 MiB
Duration : 3mn 7s
Overall bit rate mode : Variable
Overall bit rate : 193 Kbps
Encoded date : UTC 2012-04-15 17:05:40
Tagged date : UTC 2012-04-15 17:05:40
Video
ID : 1
Format : AVC
Format/Info : Advanced Video Codec
Format profile : [email protected]
Format settings, CABAC : No
Format settings, ReFrames : 3 frames
Format settings, GOP : M=1, N=75
Codec ID : avc1
Codec ID/Info : Advanced Video Coding
Duration : 3mn 7s
Bit rate : 147 Kbps
Maximum bit rate : 1 159 Kbps
Width : 800 pixels
Height : 600 pixels
Display aspect ratio : 4:3
Frame rate mode : Constant
Frame rate : 25.000 fps
Color space : YUV
Chroma subsampling : 4:2:0
Bit depth : 8 bits
Scan type : Progressive
Bits/(Pixel*Frame) : 0.012
Stream size : 3.29 MiB (76%)
Writing library : x264 core 120 r2324M 2ce5bdd
Encoding settings : cabac=0 / ref=3 / deblock=1:0:0 / analyse=0x1:0x111 / me=hex / subme=4 / psy=1 / psy_rd=1.00:0.00 / mixed_ref=0 / me_range=16 / chroma_me=1 / trellis=1 / 8x8dct=0 / cqm=0 / deadzone=21,11 / fast_pskip=1 / chroma_qp_offset=0 / threads=24 / sliced_threads=0 / nr=0 / decimate=1 / interlaced=0 / bluray_compat=0 / constrained_intra=0 / bframes=0 / weightp=0 / keyint=75 / keyint_min=7 / scenecut=40 / intra_refresh=0 / rc_lookahead=20 / rc=crf / mbtree=1 / crf=22.0 / qcomp=0.60 / qpmin=0 / qpmax=69 / qpstep=4 / ip_ratio=1.40 / aq=1:1.00
Encoded date : UTC 2012-04-15 17:05:26
Tagged date : UTC 2012-04-15 17:05:40
Audio
ID : 2
Format : AAC
Format/Info : Advanced Audio Codec
Format profile : LC
Codec ID : 40
Duration : 2mn 59s
Bit rate mode : Variable
Bit rate : 45.8 Kbps
Maximum bit rate : 50.8 Kbps
Channel(s) : 1 channel
Channel positions : Front: C
Sampling rate : 44.1 KHz
Compression mode : Lossy
Stream size : 1 004 KiB (23%)
Encoded date : UTC 2012-04-15 17:05:40
Tagged date : UTC 2012-04-15 17:05:40

Download Now :

 

ADVERTISING » Full And Free Download
Direct Download Free udemy - Multi page online form with PHP, MySQL and Session Variables.zip
« ADVERTISING

udemy - Multi page online form with PHP, MySQL and Session Variables Copyright

eBookw periodically updates infomation,google book,amazone aff, image review of udemy - Multi page online form with PHP, MySQL and Session Variables.You should confirm all information before relying on it. eBook piracy is theft, udemy - Multi page online form with PHP, MySQL and Session Variables download torrent,direct link,prefiles.com,udemy - Multi page online form with PHP, MySQL and Session Variables dropbox.com,udemy - Multi page online form with PHP, MySQL and Session Variables mediafire.com,udemy - Multi page online form with PHP, MySQL and Session Variables rapidgator.net,udemy - Multi page online form with PHP, MySQL and Session Variables filefactory.com,udemy - Multi page online form with PHP, MySQL and Session Variables uploaded.net at here Please contact hostfile


Write a Comment For"udemy - Multi page online form with PHP, MySQL and Session Variables"




Remember Me?
BOOKSMARK US

rss feed

Get newest Ebooks and Video via RSS reader

feed burner

Mail Daily Letter

Enter your email address:

PUBLICATION ARCHIVE

Main/Menu

 

WE RECOMMEND TO VISIT:

^ Top