Loading...


Loading




Author : Root | Date : 6 October 2011 | Comments : 0 |
|
Sim Card Hacking

MOV / AVC, 2183 kb/s | 1280x720 | 00:30:02 | English: AAC, 128 kb/s (2 ch) | 498 mbFormat : MPEG-4Format profile : QuickTimeCodec ID : qt File size : 498 MiBDuration : 30mn 1sOverall bit rate : 2 319 KbpsEncoded date : UTC 2008-07-29 03:43:03Tagged date : UTC 2008-07-29 03:43:49Writing library : Apple QuickTime 7.5.0VideoID : 2Format : AVCFormat/Info : Advanced Video CodecFormat profile : [email protected] settings, CABAC : NoFormat settings, ReFrames : 2 framesFormat settings, GOP : M=2, N=30Codec ID : avc1Codec ID/Info : Advanced Video CodingDuration : 30mn 1sBit rate : 2 183 KbpsWidth : 1 280 pixelsHeight : 720 pixelsDisplay aspect ratio : 16:9Frame rate mode : VariableFrame rate : 29.970 fpsMinimum frame rate : 28.571 fpsMaximum frame rate : 30.000 fpsColor space : YUVChroma subsampling : 4:2:0Bit depth : 8 bitsScan type : ProgressiveBits/(Pixel*Frame) : 0.079Stream size : 469 MiB (94%)Language : EnglishEncoded date : UTC 2008-07-24 23:55:06Tagged date : UTC 2008-07-29 03:43:49Color primaries : BT.709-5, BT.1361, IEC 61966-2-4, SMPTE RP177Transfer characteristics : BT.709-5, BT.1361Matrix coefficients : BT.709-5, BT.1361, IEC 61966-2-4 709, SMPTE RP177AudioID : 3Format : AACFormat/Info : Advanced Audio CodecFormat profile : LCCodec ID : 40Duration : 30mn 1sBit rate mode : ConstantBit rate : 128 KbpsChannel(s) : 2 channelsChannel positions : Front: L RSampling rate : 44.1 KHzCompression mode : LossyStream size : 27.9 MiB (6%)

Download Now :

 

ADVERTISING » Full And Free Download
Direct Download Free Sim Card Hacking.zip
« ADVERTISING

Sim Card Hacking Copyright

eBookw periodically updates infomation,google book,amazone aff, image review of Sim Card Hacking.You should confirm all information before relying on it. eBook piracy is theft, Sim Card Hacking download torrent,direct link,prefiles.com,Sim Card Hacking dropbox.com,Sim Card Hacking mediafire.com,Sim Card Hacking rapidgator.net,Sim Card Hacking filefactory.com,Sim Card Hacking uploaded.net at here Please contact hostfile


Write a Comment For"Sim Card Hacking"




Remember Me?
BOOKSMARK US

rss feed

Get newest Ebooks and Video via RSS reader

feed burner

Mail Daily Letter

Enter your email address:

PUBLICATION ARCHIVE

Main/Menu

 

WE RECOMMEND TO VISIT:

^ Top