Loading...


Loading




Author : Root | Date : 16 October 2011 | Comments : 0 |
|
Radical Undoing Vol 5: Legs & Pelvis

To honor Dr. Hyatt's legacy and life's work, we have completed the Radical Undoing series Covering 2 DVDs, Volume V systematically demonstrates many Exercises which you can do either alone or with a partner to free blocks in the Legs and Pelvis. Format : MPEG-4Format profile : Base Media / Version 2Codec ID : mp42File size : 1.11 GiBDuration : 1h 35mnOverall bit rate : 1 663 KbpsEncoded date : UTC 2009-09-05 21:07:51Tagged date : UTC 2009-09-05 22:30:27Writing application : HandBrake 0.9.3 2008112300Video #1ID : 1Format : MPEG-4 VisualFormat profile : [email protected] settings, BVOP : NoFormat settings, QPel : NoFormat settings, GMC : No warppointsFormat settings, Matrix : Default (H.263)Codec ID : 20Duration : 1h 35mnBit rate mode : VariableBit rate : 1 499 KbpsMaximum bit rate : 2 377 MbpsWidth : 720 pixelsHeight : 480 pixelsDisplay aspect ratio : 4:3Frame rate mode : VariableFrame rate : 29.970 fpsMinimum frame rate : 14.986 fpsMaximum frame rate : 29.981 fpsStandard : NTSCResolution : 24 bitsColorimetry : 4:2:0Scan type : ProgressiveBits/(Pixel*Frame) : 0.145Stream size : 1.00 GiB (90%)Writing library : XviD 1.1.2 (UTC 2006-11-01)Encoded date : UTC 2009-09-05 21:07:51Tagged date : UTC 2009-09-05 22:30:27Audio #2ID : 2Format : AACFormat/Info : Advanced Audio CodecFormat version : Version 4Format profile : LCFormat settings, SBR : NoCodec ID : 40Duration : 1h 35mnBit rate mode : VariableBit rate : 160 KbpsMaximum bit rate : 237 KbpsChannel(s) : 2 channelsChannel positions : L RSampling rate : 48.0 KHzResolution : 16 bitsStream size : 110 MiB (10%)Encoded date : UTC 2009-09-05 21:07:51

Download Now :

 

ADVERTISING » Full And Free Download
Direct Download Free Radical Undoing Vol 5: Legs & Pelvis.zip
« ADVERTISING

Radical Undoing Vol 5: Legs & Pelvis Copyright

eBookw periodically updates infomation,google book,amazone aff, image review of Radical Undoing Vol 5: Legs & Pelvis.You should confirm all information before relying on it. eBook piracy is theft, Radical Undoing Vol 5: Legs & Pelvis download torrent,direct link,prefiles.com,Radical Undoing Vol 5: Legs & Pelvis dropbox.com,Radical Undoing Vol 5: Legs & Pelvis mediafire.com,Radical Undoing Vol 5: Legs & Pelvis rapidgator.net,Radical Undoing Vol 5: Legs & Pelvis filefactory.com,Radical Undoing Vol 5: Legs & Pelvis uploaded.net at here Please contact hostfile


Write a Comment For"Radical Undoing Vol 5: Legs & Pelvis"




Remember Me?
BOOKSMARK US

rss feed

Get newest Ebooks and Video via RSS reader

feed burner

Mail Daily Letter

Enter your email address:

PUBLICATION ARCHIVE

Main/Menu

 

WE RECOMMEND TO VISIT:

^ Top